Autor Tema: Snitch [BRrip 1080p/Mkv-H264/Ingles AC3 5.1/Sub Esp][2013]  (Leído 295 veces)

22 de mayo de 2013, 01:13:41 pm

akuma1983

  • Visitante



Ficha Tecnica:

Título: El mensajero (Snitch)
Título original: Snitch
Dirección: Ric Roman Waugh
País: Estados Unidos
Año: 2013
Fecha de estreno: Próximamente
Duración: 112 min
Género: Drama, Thriller, Acción
Reparto: Dwayne Johnson, Barry Pepper, Jon Bernthal, Susan Sarandon, Michael K. Williams, Rafi Gavron, Melina Kanakaredes, Nadine Velazquez, Benjamin Bratt, Lela Loren
Distribuidora: eOne
Productora: Summit Entertainment, Spitfire Pictures, Front Street Productions, Participant Media, Imagenation Abu Dhabi FZ, Exclusive Media Group


Sinopsis:

John Matthews (Dwayne Johnson) es un padre cuyo hijo adolescente es acusado por equivocación de un crimen de tráfico de drogas, enfrentándose a una pena mínima de prisión de 10 años. Desesperado y dispuesto a rescatar a su hijo cueste lo que cueste, llega a un acuerdo con una abogada del Gobierno (Susan Sarandon) para trabajar como confidente infiltrado en un cártel de la droga, en una peligrosa misión en la que lo arriesga todo, incluyendo su familia y su propia vida.


 INFO General
Unique ID                                : 243258397537249681048874568605760671164 (0xB701DCFAF10A1C25AB419FFD8172CDBC)
Complete name                            : 5n108sues.mkv
Format                                   : Matroska
Format version                           : Version 2
File size                                : 800 MiB
Duration                                 : 1h 51mn
Overall bit rate                         : 1 000 Kbps
Encoded date                             : UTC 2013-05-22 08:50:45
Writing application                      : mkvmerge v6.1.0 ('Old Devil') built on Mar  2 2013 14:32:37
Writing library                          : libebml v1.3.0 + libmatroska v1.4.0

Video
ID                                       : 1
Format                                   : AVC
Format/Info                              : Advanced Video Codec
Format profile                           : High@L4.1
Format settings, CABAC                   : Yes
Format settings, ReFrames                : 4 frames
Codec ID                                 : V_MPEG4/ISO/AVC
Duration                                 : 1h 51mn
Bit rate                                 : 615 Kbps
Width                                    : 1 920 pixels
Height                                   : 800 pixels
Display aspect ratio                     : 2.40:1
Frame rate                               : 23.976 fps
Color space                              : YUV
Chroma subsampling                       : 4:2:0
Bit depth                                : 8 bits
Scan type                                : Progressive
Bits/(Pixel*Frame)                       : 0.017
Stream size                              : 477 MiB (60%)
Writing library                          : x264 core 130 r2273 b3065e6
Default                                  : Yes
Forced                                   : No

Audio
ID                                       : 2
Format                                   : AC-3
Format/Info                              : Audio Coding 3
Mode extension                           : CM (complete main)
Format settings, Endianness              : Big
Codec ID                                 : A_AC3
Duration                                 : 1h 51mn
Bit rate mode                            : Constant
Bit rate                                 : 384 Kbps
Channel(s)                               : 6 channels
Channel positions                        : Front: L C R, Side: L R, LFE
Sampling rate                            : 48.0 KHz
Bit depth                                : 16 bits
Compression mode                         : Lossy
Stream size                              : 307 MiB (38%)
Language                                 : English
Default                                  : Yes
Forced                                   : No

Subtitulos                              : Español Latino (Pegados al Video)
Capturas:









Descarga Aqui:



•----> BD25 Exclusivo Vip FTP Aquí <----•




•----> BD25 Exclusivo Vip FTP Aquí <----•




•----> BD25 Exclusivo Vip FTP Aquí <----•




•----> BD25 Exclusivo Vip FTP Aquí <----•



Linkback: http://www.zona-descarga.net/mkvx264h264/89/snitch-brrip-1080pmkv-h264ingles-ac3-5-1sub-esp2013/51321/

  • Leído 295 veces
  • Mkv/x264/H264
  • 0 Respuestas




Le gusta nuestro aporte, nos pueden ayudar comprando sus cuentas premium desde el link referido de la web:
Netload: Link referido
Uploaded: Link referido
Ryushare: Link referido

Siga a los miembros que agradecieron este mensaje:

dame_2008, @dri@n, insimilecupitre, guillermoesp, jere7, sindrome, edg, MASADII, streetxfoger, sergioarandaelgarca, kahuersur, patruro77, maikote, juansin13, reymonri, BLU25, kaosangels

Comparte me:

Digg  Facebook  SlashDot  Delicious  Technorati  Twitter  Google  Yahoo

Tags:
 

Related Topics

  Asunto / Iniciado por Respuestas Último mensaje
0 Respuestas
343 Vistas
Último mensaje 25 de abril de 2013, 05:05:50 pm
por akuma1983
1 Respuestas
201 Vistas
Último mensaje 17 de mayo de 2013, 12:00:52 am
por adrian_2012
0 Respuestas
174 Vistas
Último mensaje 24 de mayo de 2013, 08:28:46 pm
por akuma1983
0 Respuestas
143 Vistas
Último mensaje 29 de mayo de 2013, 10:49:16 am
por akuma1983
0 Respuestas
150 Vistas
Último mensaje 02 de junio de 2013, 06:32:10 pm
por akuma1983